Категории
Топ раздачи
Популярное в сети
загрузка...
» » » Интимные места (2013) DVDRip | лицензия

Интимные места (2013) DVDRip | лицензия

Категория: ВидеоНаши фильмы
Интимные места (2013) DVDRip | лицензия


Страна: Россия
Студия: Focus Plus Cinema, Lemon Films Studio, Look-film, Vita Aktiv
Жанр: драма, мелодрама
Год: 2013
Продолжительность: 01:16:13

Перевод: не требуется
Cубтитры: нет
Оригинальная аудиодорожка: русский

Режиссер: Наталья Меркулова, Алексей Чупов

В ролях: Юрий Колокольников, Олеся Судзиловская, Юлия Ауг, Никита Тарасов, Ксения Каталымова, Алексей Чупов, Екатерина Щеглова, Тимур Бадалбейли, Динара Янковская, Павел Артемьев

Описание: История о современных москвичах среднего класса и личных тайнах, которые они прячут за своим достатком и успехом.

Интимные места (2013) DVDRip | лицензияИнтимные места (2013) DVDRip | лицензия

Качество: DVDRip / DVD5 R5
Формат: AVI

Видео: 720x304 (2.35:1), 25.000 fps, XVID ~1191 kbps avg, 0.218 bit/pixel
Аудио: Русский 48 kHz, МР3, 2 ch, 128.00 kbps Constant

[spoiler=MediaInfo]
Общее
Полное имя : Intimnye.mesta.2013.O.DVDRip.745MB_[Youtracker]_by_avproh.avi
Формат : AVI
Формат/Информация : Audio Video Interleave
Размер файла : 724 Мбайт
Продолжительность : 1 ч. 16 м.
Общий поток : 1328 Кбит/сек
Программа кодирования : VirtualDubMod 1.5.10.3 www.virtualdub-fr.org || (build 2550/release)
Библиотека кодирования : VirtualDubMod build 2550/release

Видео
Идентификатор : 0
Формат : MPEG-4 Visual
Профиль формата : Advanced [email protected]
Параметр BVOP формата : 1
Параметр QPel формата : Нет
Параметр GMC формата : Без точки перехода
Параметр матрицы формата : Выборочная
Идентификатор кодека : XVID
Идентификатор кодека/Подсказка : XviD
Продолжительность : 1 ч. 16 м.
Битрейт : 1191 Кбит/сек
Ширина : 720 пикселей
Высота : 304 пикселя
Соотношение сторон : 2,35:1
Частота кадров : 25,000 кадров/сек
Цветовое пространство : YUV
Субдискретизация насыщенности : 4:2:0
Битовая глубина : 8 бит
Тип развёртки : Прогрессивная
Метод сжатия : С потерями
Бит/(Пиксели*Кадры) : 0.218
Размер потока : 649 Мбайт (90%)
Библиотека кодирования : XviD 73

Аудио
Идентификатор : 1
Формат : MPEG Audio
Версия формата : Version 1
Профиль формата : Layer 3
Идентификатор кодека : 55
Идентификатор кодека/Подсказка : MP3
Продолжительность : 1 ч. 16 м.
Вид битрейта : Постоянный
Битрейт : 128 Кбит/сек
Каналы : 2 канала
Частота : 48,0 КГц
Метод сжатия : С потерями
Размер потока : 69,8 Мбайт (10%)
Выравнивание : Соединение по промежуткам
Продолжительность промежутка : 40 мс. (1,00 видеокадр)
Время предзагрузки промежутка : 504 мс.
[/spoiler]
[spoiler=Скриншоты]
Интимные места (2013) DVDRip | лицензияИнтимные места (2013) DVDRip | лицензияИнтимные места (2013) DVDRip | лицензияИнтимные места (2013) DVDRip | лицензия
[/spoiler]

http://screenshotcomparison.com/comparison/45421
[/spoiler]

Размер файла: 724.20 MB

[Скачать торрент::Skidows.Ru::9573]

Загрузил: Sender (28 октября 2013)
Взяли: 31 | Размер: 724,2 Mb
Последняя активность: 27 февраля 2014
Содержание:
avi Intimnye.mesta.2013.O.DVDRip.745MB_[Youtracker]_by_avproh.avi (724,2 Mb)
(Голосов: 0)
Просмотров: 643 | Комментариев: 0
Поделиться ссылкой с друзьями:
Похожие раздачи:
    Бермудский треугольник (3 серии из 3) / The Triangle (2005) DVDRip Бермудский треугольник (3 серии из 3) / The Triangle (2005) DVDRip
    Описание: Миллиардер Эрик Бениролл нанимает команду специалистов, чтобы те попытались выяснить причину исчезновения в районе Бермудского треугольника принадлежавших ему кораблей. Команда — журналист-скептик, инженер, ученый и

    Раздают: | Качают: | Скачали: | Размер: 2,18 Gb

    Интимные места (2013) DVDRip-AVC | лицензия Интимные места (2013) DVDRip-AVC | лицензия
    Год: 2013 Страна: Россия Жанр: драма, мелодрама Режиссёр: Наталья Меркулова, Алексей Чупов В ролях: Юрий Колокольников, Олеся Судзиловская, Юлия Ауг, Никита Тарасов, Ксения Каталымова, Алексей Чупов, Екатерина Щеглова, Тимур

    Раздают: | Качают: | Скачали: | Размер: 1,46 Gb

    Интимные места (2013) DVDRip | лицензия Интимные места (2013) DVDRip | лицензия
    Год: 2013 Страна: Россия Жанр: драма, мелодрама Режиссёр: Наталья Меркулова, Алексей Чупов В ролях: Юрий Колокольников, Олеся Судзиловская, Юлия Ауг, Никита Тарасов, Ксения Каталымова, Алексей Чупов, Екатерина Щеглова, Тимур

    Раздают: | Качают: | Скачали: | Размер: 1,43 Gb

    Интимные места (2013) DVD5 R5  | лицензия Интимные места (2013) DVD5 R5 | лицензия
    Год: 2013 Страна: Россия Жанр: драма, мелодрама Режиссёр: Наталья Меркулова, Алексей Чупов В ролях: Юрий Колокольников, Олеся Судзиловская, Юлия Ауг, Никита Тарасов, Ксения Каталымова, Алексей Чупов, Екатерина Щеглова, Тимур

    Раздают: | Качают: | Скачали: | Размер: 3,8 Gb

    Крылатая Память Победы [01-06 из 06] (2012) HDRip Крылатая Память Победы [01-06 из 06] (2012) HDRip
    Описание: В СССР и России на протяжении долгого времени не было ни одного самолёта Великой Отечественной войны, находящегося в лётном состоянии. В то же время, в США, Великобритании, Новой Зеландии, Австралии восстановленные

    Раздают: | Качают: | Скачали: | Размер: 2,51 Gb


Информация
Посетители, находящиеся в группе Гости, не могут оставлять комментарии к данной публикации.